Justice League 2017 1080p x264 Esub BluRay Dual Audio English Hindi GOPISAHI

Posted by

Format                         : Matroska
Format version                 : Version 4 / Version 2
File size                      : 1.15 GiB
Duration                       : 2 h 0 min
Overall bit rate               : 1 375 kb/s
Movie name                     : Justice League 2017 GOPISAHI

Video
Format                         : AVC
Codec ID                       : V_MPEG4/ISO/AVC
Duration                       : 2 h 0 min
Bit rate                       : 1 200 kb/s
Width                          : 1 920 pixels
Height                         : 1 072 pixels
Display aspect ratio           : 16:9
Frame rate mode                : Constant
Frame rate                     : 23.976 (24000/1001) FPS
Stream size                    : 1.01 GiB (87%)
Title                          : GOPISAHI
Writing library                : x264 core 155 r2893 b00bcaf

Audio #1
Format                         : AAC
Duration                       : 2 h 0 min
Bit rate                       : 87.4 kb/s
Channel(s)                     : 6 channels
Channel positions              : Front: L C R, Side: L R, LFE
Sampling rate                  : 44.1 kHz
Frame rate                     : 43.066 FPS (1024 SPF)
Compression mode               : Lossy
Stream size                    : 75.1 MiB (6%)
Title                          : GOPISAHI
Language                       : Hindi

Audio #2
Format                         : AAC
Duration                       : 2 h 0 min
Bit rate                       : 85.2 kb/s
Channel(s)                     : 6 channels
Channel positions              : Front: L C R, Side: L R, LFE
Sampling rate                  : 44.1 kHz
Frame rate                     : 43.066 FPS (1024 SPF)
Compression mode               : Lossy
Stream size                    : 73.2 MiB (6%)
Title                          : GOPISAHI
Language                       : English

Text
Language                       : English


  torrborder.gif

torrborder.gif

|| Free Download Via Resumeable Single Links|| 

   torrborder.gif

torrborder.gif
Incoming search terms: