Mahi NRI 2017 DVD Punjabi GOPISAHI

Posted by
Format                         : Matroska
Format version                 : Version 4 / Version 2
File size                      : 340 MiB
Duration                       : 1 h 59 min
Overall bit rate               : 398 kb/s
Movie name                     : Mahi NRI 2017 DVD Punjabi GOPISAHI

Video
Format                         : AVC
Codec ID                       : V_MPEG4/ISO/AVC
Duration                       : 1 h 59 min
Bit rate                       : 300 kb/s
Width                          : 690 pixels
Height                         : 396 pixels
Display aspect ratio           : 16:9
Frame rate mode                : Constant
Frame rate                     : 23.976 (24000/1001) FPS
Color space                    : YUV
Chroma subsampling             : 4:2:0
Bit depth                      : 8 bits
Scan type                      : Progressive
Bits/(Pixel*Frame)             : 0.046
Stream size                    : 256 MiB (75%)
Title                          : GOPISAHI
Writing library                : x264 core 155 r2893 b00bcaf
Language                       : Panjabi

Audio
Format                         : AAC
Duration                       : 1 h 59 min
Bit rate                       : 96.0 kb/s
Channel(s)                     : 2 channels
Channel positions              : Front: L R
Sampling rate                  : 44.1 kHz
Frame rate                     : 43.066 FPS (1024 SPF)
Compression mode               : Lossy
Delay relative to video        : -23 ms
Stream size                    : 82.1 MiB (24%)
Title                          : GOPISAHI
Language                       : Panjabi



|| Free Download Via Resumeable Single Links||

Download From BDupload

Download From Indishare

Download Form Torrent

Incoming search terms: