Rampage (2018) Hindi Dubbed 720p NEW HDCAM [Dual Audio]-[Hindi (Cleaned)+English]

Posted by

General

Format                                   : Matroska
Format version                           : Version 4 / Version 2
File size                                : 1.06 GiB
Duration                                 : 1 h 39 min
Overall bit rate                         : 1 522 kb/s

Video
ID                                       : 1
Format                                   : AVC
Format/Info                              : Advanced Video Codec
Format profile                           : [email protected]
Format settings                          : CABAC / 4 Ref Frames
Format settings, CABAC                   : Yes
Format settings, RefFrames               : 4 frames
Codec ID                                 : V_MPEG4/ISO/AVC
Duration                                 : 1 h 39 min
Bit rate                                 : 1 200 kb/s
Width                                    : 1 280 pixels
Height                                   : 608 pixels
Display aspect ratio                     : 2.105
Frame rate mode                          : Constant
Frame rate                               : 29.970 (30000/1001) FPS
Color space                              : YUV
Chroma subsampling                       : 4:2:0
Bit depth                                : 8 bits
Scan type                                : Progressive
Bits/(Pixel*Frame)                       : 0.051
Forced                                   : No
Color range                              : Limited
Color primaries                          : BT.709
Transfer characteristics                 : BT.709
Matrix coefficients                      : BT.709

Audio #1
ID                                       : 2
Format                                   : MPEG Audio
Format version                           : Version 1
Format profile                           : Layer 3
Format settings                          : Joint stereo / MS Stereo
Codec ID                                 : A_MPEG/L3
Codec ID/Hint                            : MP3
Duration                                 : 1 h 39 min
Bit rate mode                            : Constant
Bit rate                                 : 128 kb/s
Channel(s)                               : 2 channels
Sampling rate                            : 48.0 kHz
Frame rate                               : 41.667 FPS (1152 SPF)
Compression mode                         : Lossy
Stream size                              : 91.2 MiB (8%)
Title                                    : www.MovCR.com
Writing library                          : LAME3.98.2
Language                                 : Hindi
Default                                  : Yes
Forced                                   : Yes

Audio #2
ID                                       : 3
Format                                   : AAC
Format/Info                              : Advanced Audio Codec
Format profile                           : LC
Codec ID                                 : A_AAC-2
Duration                                 : 1 h 39 min
Bit rate                                 : 192 kb/s
Channel(s)                               : 2 channels
Channel positions                        : Front: L R
Sampling rate                            : 48.0 kHz
Frame rate                               : 46.875 FPS (1024 SPF)
Compression mode                         : Lossy
Stream size                              : 137 MiB (13%)
Title                                    : www.MovCR.com
Language                                 : English
Default                                  : No
Forced                                   : No

 
 
 
 

Rampage (2018) Dual Audio Hindi [Cleaned] 720p HDTS Free Download

Rampage (2018) Dual Audio Hindi [Cleaned] 720p HDTS Free Download
Rampage (2018) Dual Audio Hindi [Cleaned] 720p HDTS Free Download
Rampage (2018) Dual Audio Hindi [Cleaned] 720p HDTS Free Download

|| Free Download Via Resumeable Single Links||

::::::::::

Download From BDupload

Download From Indishare

Download From Torrent

Incoming search terms: