Secret Superstar (2018) 1080p UntoucheD WEB HD – AVC – AAC – DTOne

Posted by
Video
ID                                      : 1
Format                                  : AVC
Format/Info                              : Advanced Video Codec
Format profile                          : [email protected]
Format settings                          : CABAC / 3 Ref Frames
Format settings, CABAC                  : Yes
Format settings, RefFrames              : 3 frames
Codec ID                                : V_MPEG4/ISO/AVC
Duration                                : 2 h 29 min
Bit rate                                : 6 079 kb/s
Width                                    : 3 840 pixels
Height                                  : 1 608 pixels
Display aspect ratio                    : 2.40:1
Frame rate mode                          : Constant
Frame rate                              : 25.000 FPS
Color space                              : YUV
Chroma subsampling                      : 4:2:0
Bit depth                                : 8 bits
Scan type                                : Progressive
Bits/(Pixel*Frame)                      : 0.039
Stream size                              : 6.36 GiB (97%)
Title                                    : LotterY
Default                                  : Yes
Forced                                  : No
Color range                              : Limited
Color primaries                          : BT.709
Transfer characteristics                : BT.709
Matrix coefficients                      : BT.709

Audio
ID                                      : 2
Format                                  : AAC
Format/Info                              : Advanced Audio Codec
Format profile                          : LC
Codec ID                                : A_AAC-2
Duration                                : 2 h 29 min
Bit rate                                : 192 kb/s
Channel(s)                              : 2 channels
Channel positions                        : Front: L R
Sampling rate                            : 44.1 kHz
Frame rate                              : 43.066 FPS (1024 SPF)
Compression mode                        : Lossy
Delay relative to video                  : -80 ms
Stream size                              : 203 MiB (3%)
Title                                    : LotterY
Language                                : Hindi
Default                                  : Yes
Forced                                  : No

|| Free Download Via Resumeable Single Links||

4k

1080p

 

Incoming search terms: