Subedar Joginder Singh (2018) DVDScr Rip Punjabi Esubpre

Posted by
Movie: Subedar Joginder Singh
Directed By: Simerjit Singh
Produced By: Sumeet Singh
Genre: Biography, Drama, War
Language: Punjabi
Starring: Gippy Grewal, Roshan Prince, Kulwinder Billa, Aditi Sharma, Rajvir Jawanda, Karamjit Anmol, Sardar Sohi, Guggu Gill, Charan Singh, Loveleen Kaur Sasan, Nirmal Rishi, Jordan Sandhu, Baninderjit Singh (Bunny), Harish Verma, Raghveer Boli, Jaggi Singh, Sharan Maan.

Movie Info

General
Unique ID                                : 174408704418333224728349670410241992327 (0x8335E5072248D235BDE950F6BC506687)
Complete name                            : Subedar Joginder Singh ( 2018 ) DVDScr Rip Punjabi Movie By CineVood.mkv
Format                                   : Matroska
Format version                           : Version 4 / Version 2
File size                                : 712 MiB
Duration                                 : 2 h 12 min
Overall bit rate                         : 751 kb/s
Movie name                               : CineVood.Net
Encoded date                             : UTC 2018-04-07 10:39:47
Writing application                      : mkvmerge v14.0.0 (‘Flow’) 64bit
Writing library                          : libebml v1.3.4 + libmatroska v1.4.5

Video
ID                                       : 1
Format                                   : AVC
Format/Info                              : Advanced Video Codec
Format profile                           : [email protected]
Format settings                          : CABAC / 4 Ref Frames
Format settings, CABAC                   : Yes
Format settings, RefFrames               : 4 frames
Codec ID                                 : V_MPEG4/ISO/AVC
Duration                                 : 2 h 12 min
Bit rate                                 : 637 kb/s
Width                                    : 648 pixels
Height                                   : 288 pixels
Display aspect ratio                     : 2.25:1
Frame rate mode                          : Constant
Frame rate                               : 29.970 (30000/1001) FPS
Color space                              : YUV
Chroma subsampling                       : 4:2:0
Bit depth                                : 8 bits
Scan type                                : Progressive
Bits/(Pixel*Frame)                       : 0.114
Stream size                              : 604 MiB (85%)
Title                                    : CineVood.Net
Writing library                          : x264 core 142 r2431 ac76440
Encoding settings                        : cabac=1 / ref=3 / deblock=1:0:0 / analyse=0x3:0x113 / me=hex / subme=7 / psy=1 / psy_rd=1.00:0.00 / mixed_ref=1 / me_range=16 / chroma_me=1 / trellis=1 / 8x8dct=1 / cqm=0 / deadzone=21,11 / fast_pskip=1 / chroma_qp_offset=-2 / threads=12 / lookahead_threads=2 / sliced_threads=0 / nr=0 / decimate=1 / interlaced=0 / bluray_compat=0 / constrained_intra=0 / bframes=3 / b_pyramid=2 / b_adapt=1 / b_bias=0 / direct=1 / weightb=1 / open_gop=0 / weightp=2 / keyint=300 / keyint_min=29 / scenecut=40 / intra_refresh=0 / rc_lookahead=40 / rc=2pass / mbtree=1 / bitrate=637 / ratetol=1.0 / qcomp=0.60 / qpmin=0 / qpmax=69 / qpstep=4 / cplxblur=20.0 / qblur=0.5 / ip_ratio=1.40 / aq=1:1.00
Default                                  : Yes
Forced                                   : No

Audio
ID                                       : 2
Format                                   : MPEG Audio
Format version                           : Version 1
Format profile                           : Layer 3
Format settings                          : Joint stereo / MS Stereo
Codec ID                                 : A_MPEG/L3
Codec ID/Hint                            : MP3
Duration                                 : 2 h 12 min
Bit rate mode                            : Constant
Bit rate                                 : 112 kb/s
Channel(s)                               : 2 channels
Sampling rate                            : 44.1 kHz
Frame rate                               : 38.281 FPS (1152 SPF)
Compression mode                         : Lossy
Stream size                              : 106 MiB (15%)
Title                                    : CineVood.Net
Writing library                          : LAME3.99r
Encoding settings                        : -m j -V 4 -q 2 -lowpass 15.6 -b 112
Language                                 : Hindi
Default                                  : Yes
Forced                                   : No

Screenshots

                                             

.com/proxy/

|| Free Download Via Resumeable Single Links || 

coollogo_com-309421355
.com/proxy/
Incoming search terms: